#TITLE:Danger;
#SUBTITLE:Expi3nze;
#ARTIST:f(x0;
#TITLETRANSLIT:;
#SUBTITLETRANSLIT:;
#ARTISTTRANSLIT:;
#CREDIT:;
#BANNER:bn.png;
#BACKGROUND:bg.png;
#LYRICSPATH:;
#CDTITLE:cdtitle.png;
#MUSIC:Danger.mp3;
#OFFSET:-0.348;
#SAMPLESTART:43.060;
#SAMPLELENGTH:24.407;
#SELECTABLE:YES;
#BPMS:0.000=117.999,2.000=118.004,3.000=117.999,4.000=59.001,4.333=236.018,5.000=118.004,6.000=59.005,6.167=236.018,6.500=59.005,6.667=236.018,7.000=118.004,8.000=59.001,8.333=236.018,9.000=118.004,10.000=117.999,12.000=118.004,13.000=117.999,16.000=118.004,17.000=117.999,18.000=59.005,18.167=236.018,18.500=59.005,18.667=236.018,19.000=118.004,20.000=117.999,22.000=118.004,23.000=117.999,26.000=118.004,27.000=117.999,30.000=118.004,31.000=117.999,33.000=118.004,34.000=117.999,37.000=118.004,38.000=117.999,41.000=118.004,42.000=117.999,44.000=118.004,45.000=117.999,48.000=118.004,49.000=117.999,52.000=118.004,53.000=117.999,56.000=118.004,57.000=117.999,59.000=118.004,60.000=117.999,63.000=118.004,64.000=117.999,67.000=118.004,68.000=117.999,70.000=118.004,71.000=117.999,74.000=118.004,75.000=117.999,78.000=118.004,79.000=117.999,82.000=59.005,82.250=236.039,82.750=118.020,83.000=59.005,83.167=236.018,83.500=59.005,83.667=236.018,84.000=118.004,85.000=117.999,87.000=118.004,88.000=117.999,91.000=118.004,92.000=117.999,95.000=118.004,96.000=117.999,99.000=118.004,100.000=117.999,102.000=118.004,103.000=117.999,106.000=118.004,107.000=117.999,110.000=118.004,111.000=117.999,114.000=118.004,115.000=117.999,117.000=118.004,118.000=117.999,121.000=118.004,122.000=117.999,125.000=118.004,126.000=117.999,128.000=118.004,129.000=117.999,132.000=118.004,133.000=117.999,136.000=118.004,137.000=117.999,140.000=118.004,141.000=117.999,143.000=118.004,144.000=117.999,147.000=118.004,148.000=117.999,151.000=118.004,152.000=117.999,154.000=118.004,155.000=117.999,158.000=118.004,159.000=117.999,162.000=118.004,163.000=117.999,165.000=118.004,166.000=117.999,169.000=118.004,170.000=117.999,173.000=118.004,174.000=117.999,176.000=177.002,179.000=118.004,180.000=117.999,183.000=118.004,184.000=117.999,186.000=118.004,187.000=117.999,187.500=235.997,189.000=236.018,190.000=235.997,190.500=117.999,191.000=118.004,192.000=117.999,195.000=118.004,196.000=117.999,198.000=118.004,199.000=117.999,202.000=118.004,203.000=117.999,206.000=118.004,207.000=117.999,209.000=118.004,210.000=117.999,213.000=118.004,214.000=235.997,215.000=118.004,216.000=117.999,219.000=118.004,220.000=117.999,223.000=118.004,224.000=117.999,227.000=118.004,228.000=117.999,230.000=118.004,231.000=117.999,234.000=118.004,235.000=117.999,238.000=118.004,239.000=117.999,241.000=118.004,242.000=117.999,245.000=118.004,246.000=117.999,249.000=118.004,250.000=117.999,252.000=118.004,253.000=117.999,256.000=118.004,257.000=117.999,260.000=118.004,261.000=117.999,262.000=235.997,263.000=236.018;
#STOPS:;
#BGCHANGES:;
// cache tags:
#FIRSTBEAT:4.000;
#LASTBEAT:264.000;
#SONGFILENAME:Songs/SDO pack 1/Danger f(x)/Danger.sm;
#HASMUSIC:1;
#HASBANNER:1;
#MUSICLENGTH:132.861;
// end cache tags

//---------------dance-single - ----------------
#NOTES:
     dance-single:
     :
     Hard:
     14:
     0.820,0.745,1.000,0.738,0.038,437.000,220.000,98.000,0.000,149.000:
0000
0000
0000
0000
,
0220
0000
2332
3000
1013
1010
1010
2000
,
3022
0000
0000
0000
1133
0000
1100
0000
0001
0000
0000
0010
1100
0001
1100
0000
,
0010
0000
0000
0000
1100
0000
1100
0000
0001
0000
0000
0010
0221
0000
0300
0030
,
0010
0000
1111
0000
0220
2330
3022
0030
,
1003
0011
0011
1000
1010
1001
0011
1000
,
0011
0011
1100
0011
1000
0101
1001
0001
,
1100
1100
0001
1000
1001
1001
0001
1100
,
0001
1100
1100
0011
0011
1000
1010
1001
,
0010
1000
0011
0011
1000
1100
1001
0001
,
1100
1100
0011
0011
1000
0011
0011
1000
,
1001
1001
0011
1001
1001
0001
1100
1100
,
0001
0000
1100
0000
1100
0000
0001
0000
1100
0000
0010
0100
0001
0000
0000
0000
,
0020
0000
0230
0000
0001
0011
0011
0001
,
1001
1000
0311
0011
1002
0010
1010
1010
,
0020
0000
0230
1000
0013
0011
1001
1000
,
2301
0011
0110
0001
0100
0010
0110
0101
,
3210
0000
0302
0000
0010
1100
1100
0010
,
1000
1010
1013
0010
2000
0000
3020
0000
,
0001
1001
1100
1000
0001
1001
1031
0001
,
2100
0000
0110
0000
0110
0000
0100
0000
0001
0000
0000
0010
0001
0000
0010
0000
,
3212
0000
0000
0000
2000
0000
3020
0030
0020
0000
0030
0000
2010
3000
2000
0000
,
3020
0000
2030
0000
3020
0030
0020
0000
2030
0000
3000
0000
0010
0000
0010
0000
,
2323
0000
0230
0300
0011
0000
0011
0000
0200
0000
0000
0000
0011
0000
0020
0000
,
3032
0013
1001
0011
0312
0000
1103
0002
,
0200
0000
0320
0030
1100
0000
1100
0000
0020
0000
0000
0000
1100
0000
1103
0000
,
0001
1100
1100
0001
1030
0000
0011
0011
,
1000
0011
0011
1000
0001
1100
1100
0001
,
1000
1001
1001
0001
1000
0011
0011
0002
,
0003
0000
1000
0001
1000
0001
1100
0001
,
1000
0001
1001
1000
0001
0000
1001
0000
,
0000
0000
1000
0001
1000
0001
1100
0001
,
1000
0001
1001
1000
0001
1000
0002
0203
,
0320
0000
1100
1100
0001
1100
1100
0001
,
1000
0000
1100
1100
0001
1100
1100
0000
,
0001
0000
1100
1100
0001
1100
1100
0001
,
1030
0000
0000
0000
1010
0000
0000
0000
1010
0000
0000
0100
0011
1000
0011
0000
,
0021
0000
0000
0000
1100
0000
1100
0000
0001
0000
0100
0001
1000
0000
0002
0000
,
1130
0000
0000
0000
1100
0000
0000
0000
1100
0000
0000
1000
0100
0000
0013
0000
,
1002
0000
1000
0000
1100
0000
1100
0000
1000
0000
0100
1000
0010
0000
0010
0000
,
2003
0000
3211
0000
0010
1001
0011
0001
,
0002
1300
1010
1010
0010
1000
1100
1200
,
0013
0000
0011
0011
1000
0011
0011
1000
,
0321
0000
1100
1100
0001
1100
1100
0032
,
1100
1100
1100
1100
1100
1100
2100
0000
,
0000
0003
0010
0000
0001
0100
3001
0000
,
1100
1100
0001
1100
1100
0001
1000
0002
,
0000
0003
2000
0000
0000
3000
0020
0000
0000
0030
1102
0000
1100
0000
0010
0000
,
1000
1010
1010
0010
1000
1103
1001
0011
,
1000
0020
0000
1132
0000
1003
0011
0011
,
1000
0001
1000
1001
1001
0001
1100
1100
,
0001
1100
1001
1001
0001
1100
1100
0001
,
1100
1100
0001
1100
1100
0001
1000
0011
,
0001
1000
0011
0011
0001
0000
0212
0000
,
2000
0000
3020
0030
0020
0000
0030
0000
2010
3000
2000
0000
3020
0000
2030
0000
,
3020
0030
0020
0000
2030
0000
3000
0000
0010
0000
0010
0000
2323
0000
0230
0300
,
0011
0011
0200
0000
0011
0020
3032
0013
,
1001
0000
0011
0000
0312
0000
0000
0000
1103
0000
0002
0000
0200
0000
0320
0030
,
1100
1100
0020
0000
1100
1103
0001
1100
,
1100
0001
1030
0000
0011
0011
1000
0011
,
0011
1000
0001
1100
1100
0001
1000
1001
,
1001
0001
1000
0011
0011
0002
2003
0000
,
0000
3020
0000
0032
,
0000
0000
0000
2003
,
0000
3020
0000
0032
,
0000
0000
0000
0000
,
0003
0000
0000
0000
,
0000
0000
0000
0000
,
0000
0000
0000
0000
,
0000
0000
0000
0000
;
